Mediendaten mit "MediaInfo" auslesen

Diese Seite verwendet Cookies. Durch die Nutzung unserer Seite erklären Sie sich damit einverstanden, dass wir Cookies setzen. Weitere Informationen

    Mediendaten mit "MediaInfo" auslesen

    Hallo,

    ich habe eben mal die Mediendaten einer Aufnahme meiner DOD LS430W mit der Software "MediaInfo" unter Linux Kubuntu ausgelesen. Dies kam dabei heraus (falls es jemanden interessiert, einfach den Spoiler öffnen):


    Spoiler anzeigen
    General
    Complete name : /media/peter/VOLUME1/DCIM/11231223/12530001.MOV
    Format : MPEG-4
    Format profile : QuickTime
    Codec ID : qt
    File size : 485 MiB
    Duration : 4mn 10s
    Overall bit rate : 16.3 Mbps
    Encoded date : UTC 2004-01-01 00:00:00
    Tagged date : UTC 2004-01-01 00:00:00

    Video
    ID : 1
    Format : AVC
    Format/Info : Advanced Video Codec
    Format profile : High@L4.0
    Format settings, CABAC : Yes
    Format settings, ReFrames : 1 frame
    Format settings, GOP : M=1, N=15
    Codec ID : avc1
    Codec ID/Info : Advanced Video Coding
    Duration : 4mn 10s
    Bit rate : 15.1 Mbps
    Width : 1 920 pixels
    Height : 1 080 pixels
    Display aspect ratio : 16:9
    Frame rate mode : Constant
    Frame rate : 30.000 fps
    Color space : YUV
    Chroma subsampling : 4:2:0
    Bit depth : 8 bits
    Scan type : Progressive
    Bits/(Pixel*Frame) : 0.243
    Stream size : 450 MiB (93%)
    Language : English
    Encoded date : UTC 2004-01-01 00:00:00
    Tagged date : UTC 2004-01-01 00:00:00

    Audio
    ID : 2
    Format : PCM
    Format settings, Endianness : Little
    Format settings, Sign : Signed
    Codec ID : sowt
    Duration : 4mn 10s
    Bit rate mode : Constant
    Bit rate : 512 Kbps
    Channel count : 1 channel
    Sampling rate : 32.0 KHz
    Bit depth : 16 bits
    Stream size : 15.3 MiB (3%)
    Language : English
    Encoded date : UTC 2004-01-01 00:00:00
    Tagged date : UTC 2004-01-01 00:00:00


    Angaben zum verbauten Chip wirft mir das Programm leider nicht auch noch aus.


    Gruß Almera
  • Dies ist eine Werbeanzeige da Sie das Forum als Gast besuchen. Für registrierte User ist das Forum werbefrei.